<?xml version="1.0" standalone="no"?>
<!DOCTYPE svg PUBLIC "-//W3C//DTD SVG 1.1//EN" "http://www.w3.org/Graphics/SVG/1.1/DTD/svg11.dtd" >
<!--
2013-9-30: Created.
-->
<svg>
<metadata>
Created by iconfont
</metadata>
<defs>

<font id="marsgis" horiz-adv-x="1024" >
  <font-face
    font-family="marsgis"
    font-weight="500"
    font-stretch="normal"
    units-per-em="1024"
    ascent="896"
    descent="-128"
  />
    <missing-glyph />
    
    <glyph glyph-name="circle1" unicode="&#58880;" d="M512-128C229.222-128 0 101.22199999999998 0 384S229.222 896 512 896s512-229.222 512-512-229.222-512-512-512z m0 51.2a460.8 460.8 0 1 1 0 921.6 460.8 460.8 0 0 1 0-921.6z m0 204.8a256 256 0 1 0 0 512 256 256 0 0 0 0-512z"  horiz-adv-x="1024" />

    
    <glyph glyph-name="sjsq" unicode="&#58918;" d="M511.3 581.9c-122 0-216.8-73.9-333.6-194.6 100.4-102.6 184.6-194.6 333.6-194.6 149 0 258.3 115.9 333.6 191.8-77 89.2-186.5 196.3-333.6 196.3m0-333.6c-36.1 0.7-70.5 15.8-95.5 41.9-25 26.1-38.7 61-37.9 97.1-0.7 36.1 12.9 71.1 37.9 97.1 25 26.1 59.4 41.1 95.5 41.9 36.1-0.7 70.5-15.8 95.5-41.9 25-26.1 38.7-61 37.9-97.1 0.7-36.1-12.9-71.1-37.9-97.1-25-26.1-59.3-41.1-95.5-41.9M511.3 436.3c0 11.6 4 22.8 11.4 31.7-3.8 0.3-7.6 0.3-11.4 0-33 1.2-63.4-17.7-76.9-47.8-13.5-30.1-7.3-65.4 15.5-89.2 22.9-23.8 57.9-31.3 88.5-19s50.7 42 50.7 75c0.2 3.5 0.2 7 0 10.6-14.3-11.8-34.3-14.1-50.9-5.9-16.7 8.2-27 25.4-26.3 44M750.7 829.4V746h125.1v-125.1h83.4V829.4H750.7zM64 620.9h83.4V746h125.1V829.4H64v-208.5zM147.4 148H64v-208.5h208.5v83.4H147.4V148z m728.4-125.1H750.7v-83.4h208.5V148h-83.4v-125.1z m0 0"  horiz-adv-x="1024" />

    
    <glyph glyph-name="flfx" unicode="&#58916;" d="M369.2 593.5l-1.6 3.5h-68.7v-424.7h70.7V426.6L476.4 176l1.5-3.6h66.8l108.2 254.2v-254.2h70.7V597.1h-68.7L511.3 264 369.2 593.5zM770.8 833v-70.7h118V715h-118v-70.7h118v-47.2h-118v-70.7h188.7V833H770.8z m0 0M888.8 7.2000000000000455H133.7V762.3h471.9V833H63v-896.6h896.6V361.1h-70.7v-353.9z m0 0"  horiz-adv-x="1024" />

    
    <glyph glyph-name="gjl" unicode="&#58919;" d="M684.9 338.9s-108.3-28.6-183.7-154.6c4.9-1 200.4-198.9 200.4-198.9 35-34 92.1-34 127 0l50.7 49.2c35 34 35 89.1 0 123.1L684.9 338.9z m88.2-319.5c-8.9-8.4-23.1-8.4-31.5 0l-163 158.1c-8.9 8.4-8.9 22.2 0 30.5 8.9 8.4 23.1 8.4 31.5 0l163-158.1c8.3-7.9 8.3-21.7 0-30.5z m71.4 69.4c-8.9-8.4-23.1-8.4-31.5 0L649.5 246.89999999999998c-8.9 8.4-8.9 22.2 0 30.5 8.9 8.4 23.1 8.4 31.5 0l163-158.1c9.3-7.9 9.3-21.6 0.5-30.5zM273.3 537.9l132.5-132 63.5 62-132.5 131.5 31.5 31L191 802.8 64 679.7l177.8-172.3 31.5 30.5z m0 0M691.8 433c4.9-1.5 8.9-3 13.8-4.9 23.6-7.4 49.2-9.8 73.4-7.9 44.8 3.9 89.1 22.6 123.1 57.1 40.4 39.9 59.6 94.5 57.1 148.2 0 2 0 3.9-0.5 5.9h-87.6l-35-35-26.6-26.6-27.1-27.1-72.9 19.3-19.7 72.9 27.1 27.1 26.6 26.6 35 35V811.1c-2 0-4.9 0.5-6.9 0.5-52.7 2-106.8-16.7-147.7-57.1-34.5-34.5-53.7-78.3-57.1-123.1-2-27.1 1-54.2 9.8-79.8 0-0.5 0.5-1 0.5-2 2.5-8.9 3-19.7-7.9-31C554.9 504.8 132.9 104 132.9 104c-35-30-32.5-85.7 0-118.7 33-32.5 88.1-34.5 118.7 0.5 0 0 397.4 420.5 414.6 437.7 8.9 9 18.2 10.5 25.6 9.5zM213.2 25.799999999999955c-11.3-11.3-28.6-11.3-39.9 0-11.3 11.3-11.3 28.6 0 39.9 11.3 11.3 28.6 11.3 39.9 0 10.3-11.3 10.3-28.6 0-39.9z m0 0"  horiz-adv-x="1024" />

    
    <glyph glyph-name="gdc" unicode="&#58920;" d="M350.5-62.39999999999998c-9.8 0-18.8 4.9-23.7 13.4L220.4 124.10000000000002c-2.7 4.5-4 9.4-4 14.8V789.2c0 23.7 18.8 42.9 42 42.9h184.7c23.3 0 42-19.2 42-42.9v-650.8c0-5.4-1.3-10.3-4-14.8L374.7-49c-5.4-8.5-14.3-13.4-24.2-13.4z m-78.2 208.9L350.5 19l78.7 127.5V776.2h-157v-629.7z m0 0M154.2 427.8c-15.7 0-28.2 12.5-28.2 28.2V606.3c0 41.1 33.5 74.7 74.7 74.7H457c15.7 0 28.2-12.5 28.2-28.2s-12.5-28.2-28.2-28.2H201.1c-10.3 0-18.8-8.5-18.8-18.8v-150.7c0.1-14.8-12.5-27.3-28.1-27.3z m668.2-490.2H635.9c-41.1 0-74.7 33.5-74.7 74.7V757.4c0 41.1 33.5 74.7 74.7 74.7h186.5c41.1 0 74.7-33.5 74.7-74.7v-745.6c-0.5-40.6-34-74.2-74.7-74.2zM635.9 776.2c-10.3 0-18.8-8.5-18.8-18.8v-745.6c0-10.3 8.5-18.8 18.8-18.8h186.5c10.3 0 18.8 8.5 18.8 18.8V757.4c0 10.3-8.5 18.8-18.8 18.8H635.9z m0 0M671.7 625h-82.3c-15.2 0-27.7 12.5-27.7 27.7s12.5 27.7 27.7 27.7h82.3c15.2 0 27.7-12.5 27.7-27.7 0-15.1-12.5-27.7-27.7-27.7z m44.2-172.1H589.4c-15.7 0-28.2 12.5-28.2 28.2s12.5 28.2 28.2 28.2H716c15.7 0 28.2-12.5 28.2-28.2-0.1-15.7-13.1-28.2-28.3-28.2z m-44.2-172.7h-82.3c-15.2 0-27.7 12.5-27.7 27.7s12.5 27.7 27.7 27.7h82.3c15.2 0 27.7-12.5 27.7-27.7s-12.5-27.7-27.7-27.7zM715.9 108H589.4c-15.7 0-28.2 12.5-28.2 28.2s12.5 28.2 28.2 28.2H716c15.7 0 28.2-12.5 28.2-28.2-0.5-15.7-13.1-28.2-28.3-28.2z m0 0"  horiz-adv-x="1024" />

    
    <glyph glyph-name="kjjl" unicode="&#58921;" d="M213 204.89999999999998l120.5-120.5 49.8 49.8-120.6 120.4 65.5 65.5 119.3-119.3 49.8 49.8L378 369.9l64.3 64.3 165-165 49.8 49.8-165 165 65 65 118.8-119 49.8 49.8-118.9 118.9 63.1 63.1L828.7 503l49.8 49.8-158.8 158.8 72.8 72.8-49.8 49.8L70 161.39999999999998l49.8-49.8 93.2 93.3z m603.2-130.8v-30.7H206.5v30.7H70v-136.5h136.5v30.8h609.6v-30.8h136.5V74.10000000000002H816.2z m0 0"  horiz-adv-x="1024" />

    
    <glyph glyph-name="area" unicode="&#58922;" d="M932.4 629.2c15.5 0 28 12.5 28 28V805c0 15.5-12.5 28-28 28H784.5c-15.4 0-28-12.5-28-28v-46h-90.8c-2.8 0.4-5.7 0.4-8.5 0H268.8V805c0 15.5-12.5 28-28 28H93c-15.5 0-28-12.5-28-28v-147.8c0-15.5 12.5-28 28-28h46v-487.7H93c-15.5 0-28-12.5-28-28v-147.8c0-15.5 12.5-28 28-28h147.9c15.4 0 28 12.5 28 28v46h487.7v-46c0-15.5 12.5-28 28-28h147.9c15.5 0 28 12.5 28 28V113.5c0 15.5-12.5 28-28 28h-46V533.9c0.1 0.9 0.1 1.9 0 2.8v92.4h45.9zM812.5 777h91.9v-91.9h-91.9V777zM194.9 432.5c1.6 1.1 3.2 2.3 4.6 3.7L466.3 703h127.2L194.9 304.4V432.5zM121 777h91.9v-92H121v92z m119.9-147.8c15.4 0 28 12.5 28 28v45.9h118.4L194.9 510.7V629.2h46z m-46-403.9l477.8 477.8h83.8v-34.3L229.2 141.39999999999998h-34.3v83.9zM121-6.399999999999977v91.9h91.9v-92l-91.9 0.1z m709.4 348.5L562.5 74.20000000000005c-2-2-3.7-4.3-5-6.7H430.2l400.2 400.2v-125.6z m74-348.5h-91.9v91.9h91.9v-91.9zM784.5 141.39999999999998c-15.4 0-28-12.5-28-28v-45.9H635L830.4 263v-121.6h-45.9z m45.9 405.5L351.1 67.5h-82.3V102L796 629.2h34.4v-82.3z m0 0"  horiz-adv-x="1024" />

    
    <glyph glyph-name="jdcl" unicode="&#58923;" d="M905.9 29.299999999999955H116.6c-9.9 0-17.9 5.4-23.3 13.5-5.4 8.1-5.4 17.9-0.9 26L487.1 816.9c7.2 13.5 23.3 17.9 36.8 11.7 13.5-7.2 17.9-23.3 11.7-36.8l-374-708.6h744.5c15.2 0 26.9-11.7 26.9-26.9-0.1-15.3-11.8-27-27.1-27z m0 0M472.7-62.200000000000045h-3.6c-14.3 1.8-25.1 15.2-23.3 30.5 3.6 24.2 3.6 52 0.9 80.7-15.2 157-130.1 286.1-284.3 320.2-14.4 3.6-23.3 17.9-20.6 32.3 3.6 14.3 17.9 23.3 32.3 20.6 176.7-39.5 307.7-187.5 325.6-367.8 2.7-33.2 2.7-64.6-0.9-93.3-1-13.3-12.6-23.2-26.1-23.2z m0 0"  horiz-adv-x="1024" />

    
    <glyph glyph-name="mian" unicode="&#58924;" d="M285.5 124c1.9-5.6 2.9-11.6 2.9-17.9v-111.7c0-30.8-25-55.8-55.8-55.8H120.8c-30.8 0-55.8 25-55.8 55.8V106.10000000000002c0 30.8 25 55.9 55.8 55.9h111.7c3.7 0 7.3-0.3 10.8-1.1l492.9 492.9c-0.7 3.6-1.1 7.2-1.1 10.8V776.3c0 30.8 25 55.8 55.9 55.8h111.7c30.8 0 55.8-25 55.8-55.8v-111.7c0-30.8-25-55.8-55.8-55.8H791c-6.1 0-12.1 1-17.9 2.9L285.5 124z m511.9 37.9h105.4c30.8 0 55.8-25 55.8-55.9v-111.7c0-30.8-25-55.8-55.8-55.8H791c-30.8 0-55.9 25-55.9 55.8V99.79999999999995l-49.5-49.5h-79l240.3 240.3v-79l-49.5-49.7z m-580 446.8h-96.5c-30.8 0-55.8 25-55.8 55.8V776.3c0 30.8 25 55.8 55.8 55.8h111.7c30.8 0 55.8-25 55.8-55.8v-96.5l40.7 40.7h79L176.7 489.1v79l40.7 40.6zM645 720.4L176.7 252.10000000000002v79L566 720.4h79z m201.9-272L448.7 50.200000000000045h-79l477.2 477.2v-79z m0 0"  horiz-adv-x="1024" />

    
    <glyph glyph-name="mxpq" unicode="&#58925;" d="M909.1 89.10000000000002H665v59.2h219.2c8.3 0 15 6.6 15 14.8V606.7c0 8.2-6.7 14.8-15 14.8H665v59.2h244.2c27.6 0 50-22.1 50-49.3v-492.9c0-27.3-22.4-49.4-50.1-49.4zM574.9-55.799999999999955c-16.6 0-30 13.2-30 29.6V795.9c0 16.3 13.4 29.6 30 29.6s30-13.2 30-29.6v-822.2c0-16.3-13.4-29.5-30-29.5z m-150.1 204h60V89h-60v59.2z m0 532.4h60v-59.2h-60v59.2zM304.7 148.20000000000005h60V89h-60v59.2z m0 532.4h60v-59.2h-60v59.2zM184.6 148.20000000000005h60V89h-60v59.2z m0 532.4h60v-59.2h-60v59.2zM64.5 138.39999999999998v39.4h60v-88.7h-10c-27.6 0-50 22.1-50 49.3z m0 157.7h60V237h-60v59.1z m0 118.3h60v-59.2h-60v59.2z m0 118.3h60v-59.2h-60v59.2z m0 98.6c0 27.2 22.4 49.3 50 49.3h10v-88.7h-60v39.4z m0 0"  horiz-adv-x="1024" />

    
    <glyph glyph-name="mxyp" unicode="&#58926;" d="M505.6 177.79999999999995c1.6-3.4 4-5.4 6.6-5.4 2.6 0 5 2 6.6 5.4L675 372.9c2.3 4.9 2.3 11.7 0.1 16.6-2.2 4.9-6.2 6.8-9.7 4.5L562 375.6V732.4c0 7.6-3.7 13.7-8.3 13.7h-82.9c-4.6 0-8.3-6.1-8.3-13.7v-356.8L359 394c-3.5 2.3-7.4 0.4-9.7-4.5-1.1-2.4-1.7-5.4-1.7-8.3 0-3 0.6-6 1.7-8.4l156.3-195z m-293-30L65 24.799999999999955h746.6l147.6 123H212.6z m0 0"  horiz-adv-x="1024" />

    
    <glyph glyph-name="qp" unicode="&#58928;" d="M913.9 832.1H645.4c-24.7 0-44.8-20-44.8-44.7s20-44.7 44.8-44.7h160.5l-192.2-192c-17-17.5-16.7-45.4 0.5-62.7 17.3-17.3 45.2-17.5 62.7-0.5l192.2 192V519c0-24.7 20-44.7 44.8-44.7 24.7 0 44.8 20 44.8 44.7V787.4c0 11.9-4.7 23.2-13.1 31.6-8.4 8.4-19.8 13.1-31.7 13.1z m-492.3-44.7c0 24.7-20 44.7-44.8 44.7H108.3C83.6 832 63.6 812 63.5 787.4V519c0-24.7 20-44.7 44.8-44.7 24.7 0 44.8 20 44.8 44.7V679.4l192.2-192c17.6-17 45.5-16.7 62.7 0.5 17.3 17.3 17.5 45.2 0.5 62.7l-192.2 192h160.5c24.7 0.1 44.8 20.1 44.8 44.8z m537.1-536.8c0 24.7-20 44.7-44.8 44.7-24.7 0-44.8-20-44.8-44.7v-160.4L677 282.29999999999995c-17.6 16.9-45.5 16.7-62.7-0.5-17.3-17.3-17.5-45.2-0.5-62.7l192.2-192H645.4c-24.7 0-44.8-20-44.8-44.7 0-24.7 20-44.7 44.8-44.7H914c24.7 0.1 44.6 20.1 44.8 44.7V250.60000000000002zM376.8 27H216.3l192.2 192c17 17.5 16.7 45.4-0.5 62.7-17.3 17.3-45.2 17.5-62.7 0.5L153 90.20000000000005V250.60000000000002c0 24.7-20 44.7-44.8 44.7-24.7 0-44.8-20-44.8-44.7v-268.4c0-11.9 4.7-23.2 13.1-31.6 8.4-8.4 19.8-13.1 31.7-13.1h268.6c24.7 0 44.8 20 44.8 44.7 0 24.8-20.1 44.8-44.8 44.8z m0 0"  horiz-adv-x="1024" />

    
    <glyph glyph-name="pm" unicode="&#58929;" d="M673.7 811L539.2 674.3 330 831 65 590.2v-654.3h894.6V821.1L673.7 811zM141.6 12.799999999999955V189.60000000000002L278 336.4l-78.5-323.6h-57.9z m620.7 399.7l-96.9-399.7H506.3L594.9 300l112.5 112.6h54.9zM141.6 302.29999999999995V556l193.1 175.5 212.1-158.9 159.9 162.5 176.3 6.3v-251.8H675.8L553.5 367.1 311.7 485.5 141.6 302.29999999999995z m373.3-1.9l-88.7-287.6h-148l87.5 360.7 149.2-73.1zM883 412.5v-399.7H744.2l96.9 399.7H883z m0 0"  horiz-adv-x="1024" />

    
    <glyph glyph-name="mxcj" unicode="&#58930;" d="M206.2 44.200000000000045l-35.3 35.3 70.6 70.1 35.3-35.3-70.6-70.1z m103.3 105.3l-35.3 35.3 70.1 70.1 35.3-35.3-70.1-70.1z m105.4 105.4l-32.8 33.8 70.1 70.1 35.3-35.3-72.6-68.6z m105.4 105.4L485 395.6l73.1 70.1 35.3-35.3-73.1-70.1z m105.3 105.4L590.3 501l70.1 70.1 35.3-35.3-70.1-70.1zM731 571l-35.3 35.3 73.1 70.1 35.3-35.3L731 571z m107.9 105.4l-35.3 35.3 13.4 13.4 35.3-35.3-13.4-13.4z m0 0M859.7 732.6V-13c0-27.4-22.3-49.7-49.7-49.7-27.5 0-49.7 22.3-49.7 49.7V633.2H114.2c-27.5 0-49.7 22.3-49.7 49.7 0 27.4 22.3 49.7 49.7 49.7h745.5z m0 0M909.5 36.700000000000045H163.9V782.3c0 27.5 22.3 49.7 49.7 49.7 27.4 0 49.7-22.3 49.7-49.7v-646.1h646.1c27.5 0 49.7-22.3 49.7-49.7 0.1-27.5-22.2-49.8-49.6-49.8z m0 0"  horiz-adv-x="1024" />

    
    <glyph glyph-name="rzfx" unicode="&#58931;" d="M222.4 383.9c0.1 9.3-3.5 18.1-10.1 24.8-6.6 6.7-15.4 10.3-24.8 10.3H99c-19.3 0-34.9-15.7-34.9-35.1 0-19.3 15.6-35 34.9-35h88.4c19.3 0 35 15.7 35 35z m30.2 210.9c6.4-6.4 15-10 24.1-10 9.1 0 17.6 3.5 24.1 10 13.3 13.3 13.3 35 0 48.3l-60.7 60.7c-12.9 12.9-35.3 12.8-48.2 0-6.5-6.4-10-15-10-24.2 0-9.1 3.6-17.7 10-24.2l60.7-60.6z m494-10c8.3 0 16.1 2.9 22.3 8.3l3.5 0.1v3.2l59.1 59.1c13.2 13.3 13.2 34.9-0.1 48.3-12.8 12.8-35.2 12.9-48.3 0l-60.8-60.7c-13.1-13.3-13.1-34.9 0-48.2 6.5-6.5 15.1-10.1 24.3-10.1z m-234.9 88.4c19.3 0 35 15.7 35 35V796.7c0 19.3-15.6 35-35 35-19.3 0-34.9-15.7-34.9-35v-88.4c0-19.4 15.6-35.1 34.9-35.1z m259.1-500c-12.9 12.9-35.4 12.9-48.2 0-13.3-13.3-13.3-34.9 0-48.3l60.7-60.7c6.5-6.4 15.1-9.9 24.1-9.9 9.1 0 17.7 3.5 24.1 9.9 13.3 13.3 13.3 35.1 0 48.4l-60.7 60.6z m0 0M507.8 654.8c-147.2 0-266.9-119.8-266.9-267s119.7-266.9 266.9-266.9 266.9 119.8 266.9 266.9c0.1 147.2-119.7 267-266.9 267z m197.1-267c0-108.6-88.4-197-197-197s-197 88.4-197 197 88.4 197 197 197 197-88.4 197-197zM252.6 173.20000000000005L192 112.5c-13.3-13.3-13.3-35 0-48.4 6.4-6.4 15-10 24.1-10 9.1 0 17.7 3.6 24.2 10l60.7 60.7c6.5 6.4 10 15 10 24.2 0 9.1-3.6 17.7-10 24.2-13 12.9-35.5 12.9-48.4 0zM924.4 419H836c-19.3 0-35-15.7-35-35s15.6-35 35-35h88.4c19.3 0 34.9 15.7 34.9 35s-15.6 35-34.9 35zM511.7 94.79999999999995c-19.3 0-34.9-15.7-34.9-35v-88.4c0-19.3 15.6-35 34.9-35 19.3 0 35 15.7 35 35v88.4c-0.1 19.3-15.7 35-35 35z m0 0"  horiz-adv-x="1024" />

    
    <glyph glyph-name="riqi" unicode="&#58934;" d="M450.4 647.5h122.9c21.8 0 39.5 18.5 39.5 41.3 0 22.8-17.7 41.3-39.5 41.3H450.4c-21.8 0-39.5-18.5-39.5-41.3 0-22.9 17.7-41.3 39.5-41.3z m250.3-75.4c27.3 0 49.4 23.1 49.4 51.6V753.1c0 28.5-22.1 51.6-49.4 51.6-27.3 0-49.4-23.1-49.4-51.6v-129.4c0-28.5 22.1-51.6 49.4-51.6z m220 157.9h-91c-21.8 0-39.5-18.5-39.5-41.3 0-22.8 17.7-41.3 39.5-41.3h51.5v-167.6H142.5V647.5H194c21.8 0 39.5 18.5 39.5 41.3 0 22.8-17.7 41.3-39.5 41.3h-91c-21.8 0-39.5-18.5-39.5-41.3v-683.4c0-22.8 17.7-41.3 39.5-41.3h817.7c21.8 0 39.5 18.5 39.5 41.3V688.7c0 22.8-17.7 41.3-39.5 41.3z m-39.5-683.3H142.5V417.8h738.7v-371.1zM323.5 572.1c27.3 0 49.4 23.1 49.4 51.6V753.1c0 28.5-22.1 51.6-49.4 51.6-27.3 0-49.4-23.1-49.4-51.6v-129.4c0.1-28.5 22.2-51.6 49.4-51.6z m0 0M450.4 647.5h122.9c21.8 0 39.5 18.5 39.5 41.3 0 22.8-17.7 41.3-39.5 41.3H450.4c-21.8 0-39.5-18.5-39.5-41.3 0-22.9 17.7-41.3 39.5-41.3z m250.3-75.4c27.3 0 49.4 23.1 49.4 51.6V753.1c0 28.5-22.1 51.6-49.4 51.6-27.3 0-49.4-23.1-49.4-51.6v-129.4c0-28.5 22.1-51.6 49.4-51.6z m220 157.9h-91c-21.8 0-39.5-18.5-39.5-41.3 0-22.8 17.7-41.3 39.5-41.3h51.5v-167.6H142.5V647.5H194c21.8 0 39.5 18.5 39.5 41.3 0 22.8-17.7 41.3-39.5 41.3h-91c-21.8 0-39.5-18.5-39.5-41.3v-683.4c0-22.8 17.7-41.3 39.5-41.3h817.7c21.8 0 39.5 18.5 39.5 41.3V688.7c0 22.8-17.7 41.3-39.5 41.3z m-39.5-683.3H142.5V417.8h738.7v-371.1zM323.5 572.1c27.3 0 49.4 23.1 49.4 51.6V753.1c0 28.5-22.1 51.6-49.4 51.6-27.3 0-49.4-23.1-49.4-51.6v-129.4c0.1-28.5 22.2-51.6 49.4-51.6z m0 0"  horiz-adv-x="1024" />

    
    <glyph glyph-name="share" unicode="&#58935;" d="M813 229.29999999999995c-47.1 0-88.9-22.5-115.4-57.4l-305 181.6c3.5 13.4 5.5 27.3 5.5 41.7 0 4.2-0.3 8.3-0.6 12.4l305.2 183.9c26.6-31.2 66.2-51 110.4-51 80.2 0 145.3 65 145.3 145.2S893.2 831 813 831s-145.2-65-145.2-145.2c0-15.9 2.6-31.2 7.4-45.5L372.5 483.4c-29.4 46.8-81.3 77.9-140.5 77.9-91.7 0-166-74.3-166-166s74.3-166 166-166c49.1 0 93.1 21.5 123.5 55.4l317.1-164c-3.1-11.7-4.8-24-4.8-36.7 0-80.2 65-145.2 145.2-145.2 80.2 0 145.2 65 145.2 145.2 0 80.3-65 145.3-145.2 145.3z m0 0"  horiz-adv-x="1024" />

    
    <glyph glyph-name="sck" unicode="&#58936;" d="M829.2 615c0 46.5-44.7 46.5-44.7 46.5H238.8s-44.7 0-44.7-46.5v-46.5h637V615h-1.9z m-136 136H330s-44.7 0-44.7-46.5h454.5C738 751 693.2 751 693.2 751z m227.3-182.5l-26.8 26.8V522h-764v73.4l-26.8-26.8c-26.8-26.8-46.5-34-35.8-91.3 10.7-57.3 62.6-368.6 69.8-411.5 8.9-46.5 55.5-46.5 55.5-46.5h637s46.5 0 55.5 46.5c7.2 42.9 59 354.3 71.6 411.5 10.5 57.2-9.2 64.4-36 91.2zM693.2 323.4s0-46.5-44.7-46.5H374.7c-44.7 0-44.7 46.5-44.7 46.5v91.2h64.4v-73.4h236.2v73.4H695l-1.8-91.2z m0 0"  horiz-adv-x="1024" />

    
    <glyph glyph-name="sanjiao" unicode="&#58938;" d="M811 833v-98.9L163.9 87H65v-149.2h149.2v37.3h708.7V683.8h37.3V833H811zM661.3 36.5h-456l654 654v-456.1h-198v-197.9z m200.2 0.1H699.1V199h162.4v-162.4z m0 0"  horiz-adv-x="1024" />

    
    <glyph glyph-name="text" unicode="&#58943;" d="M128 769.7v-128H64v192h192v-64H128z m0-768h128v-64H64v192h64v-128z m768.1 0v128h64v-192H768v64h128.1z m0 768H768v64h192v-192h-64v128zM257 641.7h512v-128H257v128z m192-128h128v-448H449v448z m0 0"  horiz-adv-x="1024" />

    
    <glyph glyph-name="yjgb" unicode="&#58945;" d="M196.3 621.6C196.3 736 295.6 833.7 418 833.7c122.4 0 221.7-97.7 221.7-212.1 0-86.8-45.1-156.4-110.8-194.4v70.7c32.7 28.3 53.9 70.8 55.4 123.7-1.5 84.8-75.7 157.8-166.3 159-92.3-1.3-166.5-74.3-166.3-159-0.3-53.9 21.8-97 55.4-123.7v-70.7c-65.6 37.7-110.8 107.5-110.8 194.4zM335 574.9c0 46 37.3 83.3 83.1 83.3 45.9 0 83.1-37.2 83.1-83.1v-157.2c0-2.2 3.1-6 5.5-6.5l251.2-55.9c42.6-9.5 75.9-50.9 75.9-94.4v-184.8c0-76.6-62-138.6-138.6-138.6H473.7c-39.1 0-87.5 23.3-111.9 53.7l-156 176.5c-26 32.5-23.3 81.4 6.2 110.9l3.5 3.5c30.3 30.3 79.3 30.4 109.6 0l9.9-9.9V574.9z m138.7-581.8h221.5c46 0 83.2 37.2 83.2 83.1V261.1c0 17.5-15.2 36.5-32.5 40.3l-251.2 55.8c-27.6 6.1-48.9 32.4-48.9 60.6V575.1c0 15.3-12.4 27.7-27.7 27.7-15.3 0-27.7-12.5-27.7-27.8v-436.3L285.9 243.20000000000005c-8.7 8.7-22.5 8.6-31.2 0l-3.5-3.5c-9.5-9.5-10.5-26.7-2.1-37.1l156-176.5c13.8-17.4 46.4-33 68.6-33z m0 0"  horiz-adv-x="1024" />

    
    <glyph glyph-name="bilic" unicode="&#58953;" d="M864-62.5H160.1c-51.7 0-94.8 43-94.8 94.5V736.6c0 51.6 43.1 94.5 94.8 94.5h166.6c51.7 0 94.8-43 94.8-94.5v-455.4h468.3c2.9 0-2.9 0 0 0 34.5 2.9 69-28.6 69-63v-183.3c0-54.4-43.1-97.4-94.8-97.4z m34.5 240.6c2.9 40.1-46 37.2-46 37.2H384.2c-2.9 0-2.9 2.9-5.7 2.9h-2.9c-11.5 5.7-17.2 14.3-17.2 28.6v487c0 20.1-17.2 37.2-37.3 37.2h-158c-20.1 0-37.4-17.2-37.4-37.2v-85.9h155.2c17.2 0 31.6-14.3 31.6-31.5s-14.4-31.5-31.6-31.5H125.6v-106h106.3c17.2 0 31.6-14.3 31.6-31.5s-14.4-31.5-31.6-31.5H125.6v-106h155.2c17.2 0 31.6-14.3 31.6-31.5s-14.4-31.5-31.6-31.5H125.6v-200.5c0-20.1 17.2-37.2 37.4-37.2h195.4V123.70000000000005c0 17.2 14.4 34.4 31.6 34.4 17.2 0 31.6-14.3 31.6-34.4v-114.6h129.3v91.7c0 17.2 14.4 34.4 31.6 34.4 17.2 0 31.6-14.3 31.6-34.4v-100.3h106.3V115.10000000000002c0 17.2 14.4 34.4 31.6 34.4 17.2 0 31.6-14.3 31.6-34.4v-114.6h69c20.1 0 37.4 17.2 37.4 37.2l8.5 140.4z m0 0"  horiz-adv-x="1024" />

    
    <glyph glyph-name="zbcl" unicode="&#58954;" d="M925.1 560.3c-22.6 53.2-54.9 101-96.1 142-41.2 41-89.2 73.2-142.6 95.7C631 821.3 572.2 833.1 511.7 833.1 451.1 833.1 392.3 821.3 337 798c-53.4-22.5-101.4-54.7-142.6-95.7-41.2-41-73.5-88.8-96.1-142C74.9 505.2 63 446.7 63 386.4s11.9-118.8 35.3-173.9c22.6-53.2 54.9-101 96.1-142 41.2-41 89.2-73.2 142.6-95.7 55.3-23.3 114.1-35.1 174.7-35.1 60.6 0 119.3 11.8 174.7 35.1 53.4 22.5 101.4 54.7 142.6 95.7 41.2 41 73.5 88.8 96.1 142 23.4 55.1 35.3 113.6 35.3 173.9-0.1 60.3-11.9 118.8-35.3 173.9z m-25-144.5H739.6c-6.4 50-29.1 96.2-65.4 132.4-36.4 36.2-82.8 58.8-133 65.2V773.2c191.3-14.4 344.5-166.9 358.9-357.4z m-418 43.1l-66.4 68c19.6 13.3 42.1 22.6 66.4 26.9v-94.9z m-40.4-43.1h-98.2c4.5 25.8 15 49.6 29.8 70.1l68.4-70.1z m40.4-58.9v-138c-70.5 12.3-126.2 67.8-138.6 138h138.6z m59.1 0h138.6c-12.4-70.2-68.1-125.7-138.6-138v138z m0 58.9v138c70.5-12.3 126.2-67.8 138.6-138H541.2z m-59.1 357.4v-159.8c-39.4-5-76.4-20-108.1-43.7L262.3 684.2c60.5 50.3 136.6 82.7 219.8 89zM219.9 643.1l111.7-114.5c-26.1-32.7-42.6-71.5-47.9-112.8H123.3c6.5 86.8 41.9 165.8 96.6 227.3z m-96.6-286.2h160.4c6.4-50 29.1-96.2 65.4-132.4 36.4-36.2 82.8-58.8 133-65.2v-159.8c-191.3 14.5-344.4 167-358.8 357.4z m417.9-357.3V159.39999999999998c50.2 6.4 96.6 29 133 65.2 36.4 36.2 59 82.4 65.4 132.4H900c-14.3-190.5-167.5-343-358.8-357.4z m0 0"  horiz-adv-x="1024" />

    
    <glyph glyph-name="_mars_dtjl" unicode="&#58956;" d="M65.4 455.2l895.3-0.1v-272.5l-895.3 0.1V455.2z m856.4-233.6V416.2h-97.3v-116.8c0-10.8-8.7-19.5-19.5-19.5-10.7 0-19.5 8.7-19.5 19.5V416.2h-58.4v-58.4c0-10.8-8.7-19.5-19.5-19.5-10.7 0-19.5 8.7-19.5 19.5v58.4h-58.4v-116.8c0-10.8-8.7-19.5-19.5-19.5-10.7 0-19.5 8.7-19.5 19.5V416.2h-58.4v-58.4c0-10.8-8.7-19.5-19.5-19.5-10.7 0-19.5 8.7-19.5 19.5v58.4h-58.4v-116.8c0-10.8-8.7-19.5-19.5-19.5-10.7 0-19.5 8.7-19.5 19.5V416.2h-58.4v-58.4c0-10.8-8.7-19.5-19.5-19.5-10.7 0-19.5 8.7-19.5 19.5v58.4h-58.4v-116.8c0-10.8-8.7-19.5-19.5-19.5-10.7 0-19.5 8.7-19.5 19.5V416.2h-97.3v-194.6h818z m0 0M63 586.3h897.9V535H63z"  horiz-adv-x="1024" />

    
    <glyph glyph-name="dxzs" unicode="&#58957;" d="M949.5 109.89999999999998c-12 25.8-26 54.9-41.5 87.4-15.6 32.5-32.1 66.5-49.5 102-17.5 35.5-35.1 71.5-52.9 108.4-17.8 36.9-19.7 73.8-36.9 108.1-39.3 80.9-50.3 293.2-138.5 246.4C542.1 715.4 392 264.4 392 264.4s-63.7 291-121.1 267.1c-57.4-23.9-66.6-97.1-90.2-146.4-10.2-20.7-13.2-46.2-24-69l-21.1-66.6c-10.8-23-21.4-45.4-32-67.7-10.5-22.3-20.2-42.8-29.1-62.3-6.4-14.3-9.9-28.4-10.5-42.4-0.6-13.9 1.6-26.4 6.6-37.6 5.1-11.1 13.2-20.3 24.3-27.4 11.2-7.1 25.3-10.8 42.4-10.8h741.4c15.8 0 29.8 2.8 41.9 8.5 12 5.7 21.4 13.5 28.1 23 6.6 9.6 10.2 21.1 10.5 34.3 0.6 13.6-2.7 27.8-9.7 42.8z m0 0"  horiz-adv-x="1024" />

    
    <glyph glyph-name="diejia" unicode="&#58959;" d="M510.4 831.1L64.2 518.5l446.5-312.6 446.5 312.6L510.4 831.1z m0 0M269.4 285.29999999999995l-49.7-34.8 290.8-203.6 290.8 203.6-49.8 34.8 77.9 54.5L957 250.5 510.5-62.10000000000002 64 250.5l127.5 89.3 77.9-54.5z m0 0"  horiz-adv-x="1024" />

    
    <glyph glyph-name="ss" unicode="&#58960;" d="M450.4 61.10000000000002C237.9 61.10000000000002 65 234 65 446.5 65 659 237.9 831.9 450.4 831.9S835.8 659 835.8 446.5c0-212.5-172.9-385.4-385.4-385.4z m0 675.9c-160.2 0-290.5-130.3-290.5-290.5S290.2 156 450.4 156s290.5 130.3 290.5 290.5S610.6 737 450.4 737z m0 0M900.5-62c-14.9 0-29.9 5.7-41.3 17.1L657.9 156.39999999999998c-22.8 22.8-22.8 59.8 0 82.6 22.8 22.8 59.8 22.8 82.6 0l201.3-201.3c22.8-22.8 22.8-59.8 0-82.6-11.4-11.4-26.3-17.1-41.3-17.1"  horiz-adv-x="1024" />

    
    <glyph glyph-name="tshifx" unicode="&#58961;" d="M935.9 457.6c-13.8 7.8-30.9 7.8-44.7 0-6.5-3.7-11.7-8.9-15.5-14.9h-96.4l-0.5 250.7-419.6 0.2-147.5-143.5h-0.3v-109h-64.1c-7.7 13-22 21.8-38.5 21.8C84 463 64 443.5 64 419.4c0-15.6 8.5-29.9 22.4-37.7 13.8-7.8 30.9-7.8 44.7 0 5.7 3.2 10.3 7.8 14 12.9h66.3v-255.5h422.3v0.5l145.8 141.9-0.2 114.6h97c3.8-5.6 8.7-10.5 14.8-14 13.8-7.8 30.9-7.8 44.7 0 13.8 7.8 22.4 22.2 22.4 37.7 0.1 15.6-8.5 30-22.3 37.8zM378.7 646.8h316.1l-99.3-96.6H279.4l99.3 96.6z m207.2-461.1H259.3V396h29v46.6h-29v61h326.6v-317.9zM730.8 300l-97.1-94.5V396h25.1v46.6h-25.1v78.9l97.1 94.5v-173.3h-48.3v-46.6h48.3V300z m0 0M450.6 442.6h50.9V396h-50.9v46.6z m70 0h50.9V396h-50.9v46.6z m-143.3 0h50.9V396h-50.9v46.6z m-70.8 0h50.9V396h-50.9v46.6z m0 0"  horiz-adv-x="1024" />

    
    <glyph glyph-name="dhq" unicode="&#58963;" d="M511.5-26.700000000000045c-18 0.1-35.7 4.7-51.5 13.3C279 10 136.6 152.5 113.3 333.5c-17.7 32-17.7 70.9 0 102.9C136.8 617.2 279.2 759.5 460 782.8c15.8 8.6 33.5 13.2 51.5 13.3V831.7c-246.9 0-447-200.1-447-447s200.1-447 447-447v35.6z m0 858.4v-35.5c18-0.1 35.7-4.7 51.5-13.3 180.7-23.4 323-165.7 346.5-346.5 17.7-32 17.7-70.9 0-102.9C886 152.60000000000002 743.8 10.200000000000045 562.9-13.200000000000045c-15.8-8.7-33.5-13.3-51.5-13.5v-35.5c246.9 0 447 200.1 447 447 0 246.7-200.1 446.9-446.9 446.9z m0 0M562.9 782.8c-15.8 8.6-33.5 13.2-51.5 13.3v-9.8c17.3-0.1 34.5-1.2 51.5-3.5z m-102.9 0c17.1 2.3 34.2 3.4 51.5 3.5v9.8c-18-0.1-35.7-4.7-51.5-13.3z m51.5-809.5c18 0.1 35.7 4.7 51.5 13.3-17.1-2.3-34.2-3.4-51.5-3.5v-9.8zM460-13.200000000000045c15.8-8.7 33.4-13.3 51.5-13.5v9.8c-17.2 0.1-34.4 1.3-51.5 3.7z m201.5 398.1c0.1-46.3-3.9-92.5-12-138 18.5 3.3 36 7.4 52.5 11.8 6.3 41.8 9.4 84 9.4 126.2 0 42.3-3.1 84.5-9.4 126.2-16.6 4.6-34.2 8.5-52.5 11.8 8.1-45.5 12.1-91.7 12-138z m0 0M511.5 746.2c46.9 0 97.5-65.4 126.2-170.7 18.7-2.8 36.8-6.3 54.1-10.2-24.9 107.3-71.5 187.3-128.9 218-17.1 2.3-34.2 3.4-51.5 3.5v-40.6zM361 384.9c-0.1 46.3 3.9 92.5 12 138-18.5-3.3-36-7.4-52.5-11.8-12.4-83.7-12.4-168.8 0-252.5 16.6-4.6 34.2-8.5 52.5-11.8-8.1 45.6-12.1 91.8-12 138.1z m150.5-361.5c-46.9 0-97.5 65.4-126.2 170.7-18.7 2.8-36.8 6.3-54.1 10.3 24.9-107.3 71.5-187.3 128.9-218 17.1-2.3 34.2-3.4 51.5-3.5v40.5z m180.3 181c-17.4-3.9-35.5-7.4-54.1-10.3-28.8-105.7-79.4-170.7-126.2-170.7v-40.1c17.2 0.1 34.4 1.2 51.5 3.5 57.3 30.1 103.3 110.5 128.8 217.6z m0 0M331.2 565.2c17.4 3.9 35.5 7.4 54.1 10.2 28.8 105.7 79.4 170.7 126.2 170.7v40.1c-17.2-0.1-34.4-1.2-51.5-3.5-57.3-30.2-104-110.2-128.8-217.5z m578.2-231.7c17.7 32 17.7 70.9 0 102.9 4.5-34.2 4.5-68.8 0-102.9z m-796 102.9c-17.7-32-17.7-70.9 0-102.9-4.6 34.1-4.6 68.7 0 102.9z m398.1 98.5v48.8c-42.3 0-84.5-3.1-126.2-9.4-4.6-16.6-8.5-34.2-11.8-52.5 45.5 8.5 91.7 12.9 138 13.1zM331.2 204.39999999999998c-3.9 17.4-7.4 35.5-10.3 54.1-105.7 28.8-170.7 79.4-170.7 126.2 0 46.9 65.4 97.5 170.7 126.2 2.8 18.7 6.3 36.8 10.3 54.1-107.3-24.9-188.2-71.3-217.8-128.6-4.5-34.2-4.5-68.8 0-102.9 29.6-57.6 110.5-104.3 217.8-129.1z m180.3 30.5V185c42.2-0.1 84.4 2.9 126.2 9.2 4.6 16.6 8.5 34.2 11.8 52.5-45.6-8.1-91.8-12-138-11.8z m0 0M691.8 565.2c3.9-17.4 7.4-35.5 10.2-54.1 105.7-28.8 170.7-79.4 170.7-126.2 0-46.9-65.4-97.5-170.7-126.2-2.8-18.7-6.3-36.8-10.2-54.1 107.3 24.9 187.3 71.5 218 128.9 4.5 34.2 4.5 68.8 0 102.9-30.7 57.3-110.7 103.7-218 128.8zM511.5 185v49.9c-46.3-0.1-92.5 3.9-138 12 3.3-18.5 7.4-36 11.8-52.5 41.8-6.2 84-9.3 126.2-9.2v-0.2z m0 349.9c46.3 0.1 92.5-3.9 138-12-3.3 18.5-7.4 36-11.8 52.5-41.8 5.9-84 8.7-126.2 8.3v-48.8zM320.7 258.70000000000005c2.8-18.7 6.3-36.8 10.2-54.1 17.4-3.9 35.5-7.4 54.1-10.2-4.6 16.6-8.5 34.2-11.8 52.5-18.3 3.3-35.9 7.2-52.5 11.8z m0 0M702 511.1c-2.8 18.7-6.3 36.8-10.2 54.1-17.4 3.9-35.5 7.4-54.1 10.2 4.6-16.6 8.5-34.2 11.8-52.5 18.5-3.2 36-7.4 52.5-11.8z m-64.3-317c18.7 2.8 36.8 6.3 54.1 10.3 3.9 17.4 7.4 35.5 10.2 54.1-16.6-4.6-34.2-8.5-52.5-11.8-3.3-18.3-7.2-36-11.8-52.6zM385.2 575.5c-18.7-2.8-36.8-6.3-54.1-10.2-3.9-17.4-7.4-35.5-10.3-54.1 16.6 4.6 34.2 8.5 52.5 11.8 3.4 18.5 7.4 35.9 11.9 52.5z m0 0"  horiz-adv-x="1024" />

    
    <glyph glyph-name="kjj" unicode="&#58966;" d="M425.5 260.6l-148.6 84.6c-14.3 8.1-32.5 3.2-40.7-11.1-8.1-14.3-3.2-32.5 11.2-40.7L396 208.79999999999995c14.3-8.2 32.5-3.2 40.7 11.1 8.1 14.3 3.1 32.5-11.2 40.7z m0 0M771.8 508c14.3 8.1 19.3 26.3 11.2 40.7-8.1 14.3-26.3 19.3-40.7 11.2L509.6 427.3 276.9 559.8c-14.3 8.1-32.5 3.2-40.7-11.1-8.1-14.3-3.2-32.5 11.2-40.7l236-134.3v-287c0-10.7 5.7-20.5 14.9-25.8 9.2-5.3 20.6-5.3 29.8 0s14.9 15.2 14.9 25.8V374.79999999999995c0 0.9-0.5 1.7-0.5 2.7L771.8 508z m0 0M855.7 645.2L557.5 819.8a88.935 88.935 0 0 1-90 0l-298-174.6C141.9 629 125 599.4 125 567.5V197c0-32.4 17.3-62.3 45.4-78.3l298.1-169.5c27.3-15.5 60.7-15.5 88 0l298.1 169.5c28.1 16 45.5 45.9 45.4 78.3V567.5c0.2 32-16.7 61.5-44.3 77.7zM840.5 197c0-10.8-5.8-20.8-15.1-26.1L527.3 1.3999999999999773c-9.1-5.2-20.2-5.2-29.3 0L199.8 170.89999999999998c-9.4 5.3-15.2 15.3-15.1 26.1V567.5c0 10.7 5.6 20.5 14.8 25.9l298 174.6c9.3 5.4 20.7 5.4 30 0l298.3-174.6c9.2-5.3 14.8-15.2 14.8-25.9V197z m0 0M761 438.9l-139.1-82.1c-19.2-11.3-34.8-36.3-34.8-55.7v-164.4c0-19.4 15.6-26 34.8-14.7L761 204.10000000000002c19.2 11.3 34.8 36.3 34.8 55.7V424.2c0 19.4-15.5 26-34.8 14.7z m0 0"  horiz-adv-x="1024" />

    
    <glyph glyph-name="eswqh" unicode="&#58967;" d="M512.3-63.60000000000002c-128.1 0-244.3 53.7-324.7 140.3l-3 3C110.1 163.29999999999995 65.4 267.79999999999995 65.4 384.2s44.7 220.9 116.2 301.5l3 3C268 778.3 384.2 832 512.3 832S756.6 778.3 837 691.7l3-3c74.5-83.6 119.2-188.1 119.2-304.5S914.5 163.29999999999995 843 82.70000000000005c0-3-3-3-3-6-83.4-86.5-199.6-140.3-327.7-140.3z m29.8 268.7v-203c47.7 17.9 92.4 80.6 119.2 173.1-35.8 15-77.5 26.9-119.2 29.9z m-178.7-29.8c26.8-92.5 74.5-155.2 119.2-173.1v203c-41.8-3.1-83.5-15-119.2-29.9z m351.5-26.9c-14.9-47.8-35.7-89.6-59.6-122.4 44.7 17.9 86.4 44.8 122.1 77.6-20.8 14.9-38.7 29.9-62.5 44.8z m-467.7-47.8c35.7-32.8 77.5-59.7 122.1-77.6-23.8 32.8-44.7 74.6-59.6 122.4-23.8-11.9-41.7-26.9-62.5-44.8z m485.6 107.5c29.8-17.9 59.6-38.8 86.4-62.7 44.7 59.7 74.5 131.3 80.4 209h-149c-2.9-53.8-8.9-101.5-17.8-146.3zM125 354.4c6-77.6 35.8-152.2 80.4-209 26.8 23.9 53.6 44.8 86.4 62.7-8.9 44.8-14.9 92.5-17.9 146.3H125z m417.1-89.6c47.7-3 92.4-14.9 134.1-29.9 6 35.8 11.9 77.6 14.9 122.4h-149v-92.5z m-208.5 89.6c3-44.8 6-83.6 14.9-122.4 41.7 17.9 89.4 26.9 134.1 29.8v89.6h-149v3z m417 59.7h149c-6 77.6-35.8 152.2-80.4 209-26.8-23.9-53.6-44.8-86.4-62.7 8.9-44.8 14.9-92.6 17.8-146.3z m-208.5 0h149c-3 44.8-6 83.6-14.9 122.4-41.7-17.9-89.4-26.9-134.1-29.8v-92.6z m-208.5 0h149v89.6c-47.7 3-92.4 14.9-134.1 29.9-9-35.9-12-74.7-14.9-119.5z m-208.6 0h149c3 53.7 8.9 101.5 17.9 146.3-29.8 17.9-59.6 38.8-86.4 62.7-44.7-56.8-74.5-131.4-80.5-209z m238.4 179.1c38.7-14.9 77.5-26.9 119.2-29.8v203c-47.7-18-92.4-80.7-119.2-173.2z m178.7 173.1v-203c41.7 3 83.4 11.9 119.2 29.8-26.8 92.6-71.5 155.3-119.2 173.2z m-294.9-98.5c17.9-17.9 38.7-32.8 59.6-47.8 14.9 47.8 35.7 89.6 59.6 122.4-41.8-14.9-83.5-41.7-119.2-74.6z m408.1 77.6c23.8-32.8 44.7-74.6 59.6-122.4 20.9 11.9 41.7 29.8 59.6 47.8-32.8 29.9-74.5 56.7-119.2 74.6z m0 0"  horiz-adv-x="1024" />

    
    <glyph glyph-name="zbdw" unicode="&#58969;" d="M952.6 221.10000000000002l-218.3 80.4v-64.6H608C600.2 356.6 504.5 452.2 384.9 460V613.1h64.6L369.1 831.5l-80.4-218.4h64.6V460C233.7 452.2 138 356.6 130.2 236.89999999999998H70.5v-31.6h59.7c7.8-119.6 103.5-215.3 223.1-223V-63h31.6v45.2C504.5-10 600.2 85.70000000000005 608 205.39999999999998h126.3v-64.6l218.3 80.3z m-467.5 15.8H384.9V337.20000000000005c52-7 93.2-48.2 100.2-100.3zM353.3 337.20000000000005V237H253.1c7 52 48.2 93.2 100.2 100.2zM253.1 205.39999999999998h100.2v-100.2c-52 6.9-93.2 48.1-100.2 100.2z m131.8-100.3V205.39999999999998h100.2c-7-52.1-48.2-93.3-100.2-100.3z m0 0"  horiz-adv-x="1024" />

    
    <glyph glyph-name="edit" unicode="&#58970;" d="M64 283.5v-141h139.7L626.2 565 485.9 705.4 64 283.5z m667.9 457.3L661.7 811c-19.2 19.4-50.3 19.6-69.8 0.5l-0.4-0.4-35.5-34.8 140.4-141 34.8 35.4c19.4 19.2 19.6 50.3 0.4 69.7l-0.4 0.4h0.7zM64 43.200000000000045h894.9v-99.9H64v99.9z m0 0"  horiz-adv-x="1024" />

    
    <glyph glyph-name="map" unicode="&#58971;" d="M319.8 832.6c4.2 0 8-1.5 11.2-4.7 3.2-3.2 4.7-6.9 4.7-11.2v-734c0-6.6-2.9-11.3-8.5-13.9l-239.3-128c-2.3-1.2-4.8-2-7.5-2-4.2 0-8 1.5-11.2 4.7-3.2 3.2-4.7 6.9-4.7 11.2V688.8c0 6.6 2.9 11.3 8.5 13.9L312.3 830.4c2.3 1.3 4.8 2.2 7.5 2.2z m63.8 0c2.7 0 5-0.6 7-1.3L646 703.6c6-3.4 9-8.2 9-14.4v-734c0-4.2-1.5-8-4.7-11.2-3.2-3.1-6.9-4.7-11.2-4.7-2.7 0-5 0.6-7 1.3L376.5 68.20000000000005c-6 3.4-9 8.2-9 14.4v734c0 4.2 1.5 8 4.7 11.2 3.3 3.2 7.1 4.8 11.4 4.8z m558.3 0c4.2 0 8-1.5 11.2-4.7 3.1-3.2 4.7-6.9 4.7-11.2v-734c0-6.6-2.9-11.3-8.5-13.9l-239.1-128c-2.3-1.2-4.8-2-7.5-2-4.2 0-8 1.5-11.2 4.7-3.2 3.2-4.7 6.9-4.7 11.2V688.8c0 6.6 2.9 11.3 8.5 13.9L934.8 830.6c2 1.1 4.6 2 7.1 2z m0 0"  horiz-adv-x="1024" />

    
    <glyph glyph-name="fxmy" unicode="&#58973;" d="M64 309.6l895.8 461.1-236.6-771-263.7 120.4-111.8-120.4V163L848 667.5 250.3 214.60000000000002 64 309.6z m0 0"  horiz-adv-x="1024" />

    
    <glyph glyph-name="dingwei" unicode="&#58974;" d="M408.8 487.6c0-56.7 46-102.6 102.6-102.6 56.7 0 102.6 46 102.6 102.6 0 56.7-46 102.6-102.6 102.6-56.7 0-102.6-45.9-102.6-102.6z m0 0M511.4-63.700000000000045c-21.8 0-42.8 6.7-60.5 19.3-16 11.4-28.4 26.9-36 45L218.4 307.20000000000005l-0.2 0.3C184.7 361.9 167 424.2 167 487.6c0 92 35.8 178.5 100.9 243.6C332.9 796.2 419.4 832 511.4 832s178.5-35.8 243.5-100.9C820 666 855.8 579.5 855.8 487.5c0-63.7-17.9-126.2-51.6-180.8l-0.3-0.5-196.2-306.4c-7.7-17.9-20.1-33.3-36.2-44.5-17.7-12.4-38.4-19-60.1-19zM280.2 346l200.1-312.2 1.4-3.6c4.7-12.7 16.4-20.9 29.7-20.9 13.2 0 24.8 8.1 29.7 20.5l1.3 3.5 199.9 312.1c26.5 43 40.6 92.1 40.6 142.2 0 72.5-28.2 140.7-79.5 191.9-51.3 51.3-119.5 79.5-192 79.5s-140.7-28.2-191.9-79.5C268.2 628.2 240 560.1 240 487.6c0-49.8 13.9-98.7 40.2-141.6z m0 0"  horiz-adv-x="1024" />

    
    <glyph glyph-name="marker" unicode="&#58976;" d="M512.5 630.5c27 0 52.5-10.6 71.7-29.7 19.2-19.2 29.7-44.6 29.7-71.6 0-27-10.6-52.5-29.7-71.6-19.2-19.3-44.6-29.8-71.7-29.8-27 0-52.5 10.6-71.6 29.7-19.2 19.2-29.7 44.5-29.7 71.6 0 27 10.6 52.5 29.7 71.6 19.2 19.2 44.7 29.8 71.6 29.8m0 55.9c-86.8 0-157.3-70.5-157.3-157.3 0-86.8 70.5-157.3 157.3-157.3 86.7 0 157.3 70.5 157.3 157.3 0 86.9-70.4 157.3-157.3 157.3z m0 0M512.5 776.2c33.3 0 65.7-6.6 96.1-19.4 29.3-12.4 55.8-30.2 78.4-53 22.8-22.7 40.5-49.2 53-78.6 13-30.5 19.5-62.8 19.6-96.3 0.1-49.5-13.7-103.5-41-160.2-23-47.6-55.3-97.1-96.2-147-40.6-49.7-81.8-90-109.8-115.6-27.4 25.1-67.6 64.8-107.7 113.9-41 50.2-73.7 100-97.1 147.8-27.8 57.2-42.1 111.6-42.5 161.6-0.3 33 6.1 65.1 18.7 95.3 12.3 29.1 29.8 55.5 52.3 78.2 22.8 23 49.5 41 79 53.7 31.1 13 63.7 19.6 97.2 19.6m0 56c-167.3 0-304.2-135.7-303-303 1.7-256 303-496.9 303-496.9s303.7 240.9 303 496.9c-0.3 167.2-135.5 303-303 303z m0 0M512.8-62.5c-69.4 0-135.1 11.9-184.9 33.3-57.3 24.7-88.8 60.6-88.8 100.7 0 23.1 10.6 56.8 60.7 86.5 1.3 0.8 2.6 1.5 3.9 2.3 5 2.8 10.2 5.5 15.7 8.1 14 6.7 30.6 0.6 37.2-13.3 6.7-14 0.6-30.6-13.3-37.2-4.2-2-8.3-4.1-12.1-6.2-1-0.5-1.9-1.1-2.9-1.7-21.2-12.6-33.3-26.5-33.3-38.3 0-15.8 21.2-34.7 55.1-49.4 43-18.6 100.8-28.8 162.8-28.8 62 0 119.7 10.2 162.8 28.8 34 14.7 55.1 33.6 55.1 49.4 0 11.9-12.3 25.9-33.5 38.5-4.6 2.6-9.5 5.3-14.7 7.8-14 6.6-20 23.3-13.3 37.2 6.6 14 23.3 20 37.2 13.3 6.7-3.2 13.2-6.7 19.3-10.2 50.4-29.8 61.1-63.6 61.1-86.7 0-40.2-31.5-76-88.8-100.7-50.3-21.5-115.7-33.4-185.3-33.4z m0 0"  horiz-adv-x="1024" />

    
    <glyph glyph-name="extent" unicode="&#58977;" d="M922.1-62.10000000000002H103.3c-20.6 0-37.2 16.7-37.2 37.2V794c0 20.6 16.7 37.2 37.2 37.2h818.8c20.6 0 37.2-16.7 37.2-37.2v-818.8c0-20.6-16.7-37.3-37.2-37.3z m-781.6 74.4h744.4V756.7H140.5v-744.4z m0 0"  horiz-adv-x="1024" />

    
    <glyph glyph-name="print" unicode="&#58978;" d="M200.5 109.39999999999998H87c-16.8 0-23 6.2-23 22.9 0 72.2-0.1 144.3 0 216.5 0.1 58.1 43.4 102.6 101.6 104.6 11.7 0.4 23.4 0.1 36.1 0.1V465 740.3c0 36.6 20.7 57.4 57.1 57.4 117.1 0 234.3 0.2 351.4-0.1 36.9-0.1 69-13.5 95.4-39.4 25.7-25.1 51.1-50.5 76.2-76.2 25.7-26.2 38.8-58 39.3-94.5 0.6-41.1 0.1-82.1 0.1-123.2v-10.9c11.8 0 22.9 0.2 33.9 0 49.2-1 89.9-32.8 100.8-79.3 2.1-9 2.9-18.5 2.9-27.8 0.2-71.3 0.1-142.5 0.1-213.8 0-16.8-6.2-23.1-22.9-23.2-34.7-0.1-69.4 0-104.2 0h-10.7v-82.1c0-12.7-2.5-24.6-10.4-34.8-11.1-14.5-25.9-20.8-44-20.8-69.1 0.1-138.3 0.1-207.4 0.1H258.6c-36.5 0-57 20.7-57.1 57.3 0 26-0.1 51.9-0.2 77.9 0.3 0.5-0.2 1-0.8 2.5z m551.6 481.9h-82.6c-18.3 0-33.5 6.5-44.7 21.4-7.8 10.4-10 22.3-10 35v80.8H271.1v-343.2h481v206z m0-413.7H271.2v-136.7h480.9V177.60000000000002z m103.6 207.2c-18.8 0-34.5-15.9-34.4-34.7 0.2-18.5 15.6-34 34-34.2 18.7-0.2 34.8 15.6 34.9 34.3 0.1 18.7-15.6 34.6-34.5 34.6z m0 0"  horiz-adv-x="1024" />

    
    <glyph glyph-name="polygon" unicode="&#58979;" d="M938.8 512.4L536.7 805.1c-15.7 11.5-37 11.5-52.7 0L81.9 512.4c-15.6-11.5-22.1-31.7-16.1-50.1l153.7-473.5c6.2-19.2 24.5-31.9 44.7-30.9h494.6c20.1-1 38.4 11.7 44.7 30.9l153.7 473.5c5.5 18.9-1.9 39.2-18.4 50.1zM726.6 47.299999999999955H294.1l-134 411.8 350.3 254.2 349.4-254.2-133.2-411.8z m0 0"  horiz-adv-x="1024" />

    
    <glyph glyph-name="polyline" unicode="&#58980;" d="M959.1 510c0 40-32.3 72.4-72.2 72.4-39.9 0-72.2-32.4-72.2-72.4 0-19.6 7.8-37.3 20.4-50.3L711.2 192.79999999999995l-302.5 505-259-469.1c-4.5 0.9-9.2 1.4-14 1.4-39.9 0-72.2-32.4-72.2-72.4 0-40 32.3-72.4 72.2-72.4 39.9 0 72.2 32.4 72.2 72.4 0 13.8-4.1 26.6-10.8 37.6l214.5 391.8 309.6-515.8 167.3 366.5c39.1 0.9 70.6 32.8 70.6 72.2z m0 0"  horiz-adv-x="1024" />

    
    <glyph glyph-name="circle" unicode="&#58982;" d="M511.3-62.299999999999955c-246.9 0-447.8 200.5-447.8 446.9C63.5 631 264.4 831.4 511.3 831.4s447.8-200.5 447.8-446.9c0-246.3-200.9-446.8-447.8-446.8z m0 821.3c-206.9 0-375.2-168-375.2-374.5S304.4 10 511.3 10c206.9 0 375.3 168 375.3 374.5 0 206.6-168.3 374.5-375.3 374.5z m0 0"  horiz-adv-x="1024" />

    
    <glyph glyph-name="tsls" unicode="&#58984;" d="M855.9 595.6V706.3c0 23.4-19 42.3-42.3 42.3H208.5c-23.4 0-42.3-19-42.3-42.3v-110.6h689.7z m0-84.6H166.2v-446.4c0-23.4 19-42.3 42.3-42.3h605.1c23.4 0 42.3 18.9 42.3 42.3V511zM208.5 833.3h605.1c70.1 0 127-56.9 127-127v-641.6c0-70.1-56.9-127-127-127H208.5c-70.1 0-127 56.9-127 127V706.3c0 70.1 56.9 127 127 127z m105.8-754.7c-43.8 0-79.4 35.5-79.4 79.4 0 43.8 35.5 79.4 79.4 79.4h205.9c43.8 0 79.4-35.5 79.4-79.4 0-43.8-35.5-79.4-79.4-79.4H314.3z m0 203.4c-44.1 0-79.8 35.7-79.8 79.8 0 44.1 35.8 79.8 79.8 79.8 44.1 0 79.8-35.7 79.8-79.8 0.1-44-35.7-79.8-79.8-79.8z m205.9 0c-44.1 0-79.8 35.7-79.8 79.8 0 44.1 35.8 79.8 79.8 79.8S600 406 600 361.9 564.3 282 520.2 282z m188.5 0c-44.1 0-79.8 35.7-79.8 79.8 0 44.1 35.8 79.8 79.8 79.8 44.1 0 79.8-35.7 79.8-79.8 0.1-44-35.7-79.8-79.8-79.8z m0-203.9c-44.1 0-79.8 35.7-79.8 79.8 0 44.1 35.8 79.8 79.8 79.8 44.1 0 79.8-35.8 79.8-79.8 0.1-44.1-35.7-79.8-79.8-79.8z m0 0"  horiz-adv-x="1024" />

    
    <glyph glyph-name="tc" unicode="&#58985;" d="M917.3 246.39999999999998c-5.7 0-11.1-1.2-16.1-3.2l-0.2-0.1-0.2-0.1-389.6-161.2L121.5 243c-0.1 0-0.1 0.1-0.2 0.1l-0.2 0.1c-21.2 8-45-2.3-53.7-23.2-8.7-21 0.9-45 21.6-54.4l405.8-167.9c0.1 0 0.1-0.1 0.2-0.1l0.2-0.1c10.3-4.3 21.8-4.3 32.1 0l0.2 0.1c0.1 0 0.1 0.1 0.2 0.1l405.8 167.9c18.5 7.7 29.1 27.3 25.1 47-4 19.6-21.3 33.8-41.3 33.8zM89 529.7l405.8-167.9 0.2-0.1 0.2-0.1c10.3-4.3 21.8-4.3 32.1 0l0.2 0.1c0.1 0 0.1 0.1 0.2 0.1l405.8 167.9c15.7 6.5 25.9 21.8 26 38.8 0 17-10.2 32.3-26 38.8L527.6 775.2c-0.1 0-0.1 0.1-0.2 0.1l-0.2 0.1a41.55 41.55 0 0 1-32.1 0l-0.2-0.1c-0.1 0-0.1-0.1-0.2-0.1L88.9 607.3c-15.7-6.5-25.9-21.8-26-38.8 0.1-17 10.4-32.3 26.1-38.8z m828.3-101.2c-5.7 0-11.1-1.2-16.1-3.2l-0.2-0.1c-0.1 0-0.1-0.1-0.2-0.1L511.2 263.9 121.5 425.1c-0.1 0-0.1 0.1-0.2 0.1l-0.2 0.1c-21.3 8.2-45.2-2.1-53.9-23.2-8.7-21 0.9-45.2 21.8-54.5l405.8-167.9 0.2-0.1 0.2-0.1c10.3-4.3 21.8-4.3 32.1 0l0.2 0.1c0.1 0 0.1 0.1 0.2 0.1l405.8 167.9c18.5 7.7 29.1 27.3 25.1 47s-21.3 33.9-41.3 33.9z m0 0"  horiz-adv-x="1024" />

    
    <glyph glyph-name="updown" unicode="&#58986;" d="M795.2 277.79999999999995H227.3c-28 0-44.8-18.2-30.8-32.2 21-22.4 271.4-283.9 283.9-296.5 15.4-16.8 49-14 62.9 0 9.8 9.8 267.2 281.1 282.5 296.5 14.1 15.4-4 30.8-30.6 32.2zM227.3 490.4h567.9c26.6 0 44.8 16.8 30.8 32.2C810.6 538 553.2 809.3 542 820.5c-12.6 14-46.2 15.4-62.9 0-11.2-14-261.6-275.5-282.5-297.9-14.1-14 2.7-32.2 30.7-32.2z m0 0"  horiz-adv-x="1024" />

    
    <glyph glyph-name="tsbh" unicode="&#58987;" d="M922.4 449c-1.4 13.3-7 25.9-17.5 34.3l-69.4 59.6c-21 17.5-52.6 15.4-70.1-4.9L450.2 173.70000000000005c-4.9-6.3-9.1-14-10.5-21v-0.7L425 62.299999999999955l-0.7-2.1c-2.8-25.9 14.7-49.7 40.6-55.4 1.4 0 2.8-0.7 4.2-0.7 6.3-0.7 12.6 0 18.2 1.4l86.2 28.7c7.7 2.1 14.7 6.3 20.3 11.9l317.4 366.5c7 9.8 11.9 23.1 11.2 36.4zM547.6 98.70000000000005l-49.7-16.8 9.1 50.5 221.4 256.4 39.9-35.7-220.7-254.4z m265.5 306.9l-39.9 35.7 31.5 36.4 40.6-35-32.2-37.1z m0 0M193 123.89999999999998V645.2c27.3 9.8 49 30.8 58.2 58.2h520.6c13.3-37.1 48.3-64.5 90.4-64.5 52.6 0 96 42.7 96 96s-42.7 96-96 96c-41.3 0-77.1-26.6-90.4-63.1H251.2c-12.6 37.1-48.3 63.8-90.4 63.8-52.6 0-95.3-43.4-95.3-96 0-41.3 26.6-77.1 63.8-90.4v-521.3c-37.1-13.3-63.8-48.3-63.8-90.4 0-52.6 42.7-96 96-96 42 0 77.1 26.6 90.4 63.8h69.4v63.8h-69.4c-9.8 27.3-31.6 49-58.9 58.8z m0 0"  horiz-adv-x="1024" />

    
    <glyph glyph-name="dth" unicode="&#58989;" d="M913.1 608.5L510.8 832.1 108.5 608.5v-448.4L510.8-64l402.3 224.1V608.5zM510.8 738l317.9-176.7-317.9-177.1-318 177.2 318 176.6z m326.9-526L510.8 29.899999999999977V290.20000000000005l33.7 18.8 293.2 163.3V212z m0 0"  horiz-adv-x="1024" />

    
    <glyph glyph-name="fxgj" unicode="&#58972;" d="M673.9 628.2V750.1H145.8V222h121.9V628.2h406.2z m81.3-81.3v-406.3H348.9v-121.9H877V546.9H755.2z m0 81.3h203.1v-690.6H267.6V140.70000000000005H64.5V831.3h690.7v-203.1zM511.4 506.3c-10.8 0-21.1-4.3-28.7-11.9-7.6-7.6-11.9-18-11.9-28.7v-60.9c0-22.4 18.2-40.6 40.6-40.6 22.4 0 40.6 18.2 40.6 40.6v60.9c0 10.8-4.3 21.1-11.9 28.7-7.6 7.6-17.9 11.9-28.7 11.9z m-0.3-162.5c-11.4 0-20.8-3.8-28.2-11.4-8.1-7.2-12.2-16.9-12.2-29 0-11.4 4.1-21 12.2-29 7.7-7.9 17.1-11.9 28.2-11.9 10.9-0.1 21.3 4 29.3 11.4 7.7 7.9 11.6 17.8 11.6 29.5 0 12.1-3.9 21.8-11.6 29-7.4 7.6-17.1 11.4-29.3 11.4z m0 0"  horiz-adv-x="1024" />

    
    <glyph glyph-name="ghfadb" unicode="&#58990;" d="M916.3 425.5H591L554 832.1h325.3l37-406.6zM805.1 750.8h-162l22.2-244h162l-22.2 244z m118.6-406.6l37-406.6H635.4l-37 406.6h325.3z m-74.2-81.4h-162l22.2-244h162l-22.2 244zM428.1 425.5l-29.6 325.3H221.7l-29.6-325.3h236z m7.3-81.3H184.7l-29.6-325.3H465l-29.6 325.3z m37.3 487.9L554-62.5H66l81.3 894.6h325.4z m0 0"  horiz-adv-x="1024" />

    
    <glyph glyph-name="qjsjdb" unicode="&#58991;" d="M855.1-62.299999999999955s-167.3 34.8-336.7 34.8c-173.5 0-349.1-34.8-349.1-34.8C111.7-61.799999999999955 65.2-15 65 42.60000000000002V727.9c0.3 57.5 46.8 104.1 104.4 104.3 57.5 0.2 176.5-39.9 350.3-40 168.9-0.1 335.3 39.5 335.3 39.5 57.4 0 103.9-46.5 104-103.8v-685.2c0-57.6-46.3-104.5-103.9-105z m54.7 342.8V727.8c0 26.7-27.9 54.7-54.7 54.7 0 0-164.9-35.6-332.9-35.6-174.7 0-352.8 35.6-352.8 35.6-26.7 0-59.6-28-59.6-54.7l4-557 145 133.3c9.7 8.9 24.4 9.8 35 2l157.9-114.3 227.6 234.1c5.2 5.4 12.4 8.4 19.8 8.4h0.1c7.5 0 14.6-3 19.8-8.3l190.7-194.6v49.1z m0-127.9c-0.8 0.6-1.5 1.2-2.2 1.9L699.4 366.9 474.8 136c-9.6-9.9-25-11.2-36.2-3.1L279.6 248 115.3 97c-0.3-0.3-0.7-0.5-1-0.8l0.4-54.1c0-26.7 27.9-54.7 54.7-54.7 0 0 168.1 30.6 337.9 30.6 173.1 0 347.9-30.6 347.9-30.6 26.7 0 54.7 28 54.7 54.7V152.60000000000002z m-107-21.1c-7.5 0-14.6 3-19.8 8.3l-10.2 10.4c-10.7 10.9-10.5 28.5 0.4 39.2 10.9 10.7 28.5 10.5 39.2-0.4l10.2-10.4c7.8-8 10.1-19.8 5.8-30.1-4.4-10.4-14.5-17.1-25.6-17z m-82.4 74.8l-20.1 20.5-99.2-102c-10.7-10.7-28.1-10.9-38.9-0.3-10.9 10.6-11.3 27.9-0.8 38.9l119 122.4c5.2 5.4 12.4 8.4 19.8 8.4h0.1c7.5 0 14.6-3 19.8-8.3l40-40.9c10.7-10.9 10.5-28.5-0.4-39.2-11-10.6-28.6-10.4-39.3 0.5z m50.7 516.5c15.9 0 30.3-9.6 36.4-24.2 6.1-14.7 2.7-31.6-8.5-42.9-11.2-11.3-28.2-14.6-42.9-8.5s-24.3 20.4-24.3 36.3c0 10.4 4.1 20.5 11.4 27.9 7.4 7.3 17.5 11.4 27.9 11.4z m0-52.4c3.6-0.5 7.3 0.7 9.8 3.3 2.6 2.6 3.8 6.2 3.3 9.8 0.5 3.6-0.7 7.3-3.3 9.8-2.6 2.6-6.2 3.8-9.8 3.3-7.1-0.4-12.7-6.1-13.1-13.1-0.5-3.6 0.7-7.3 3.3-9.8 2.6-2.6 6.2-3.9 9.8-3.3zM610.9 439.5c-43.7 0-78.6 26.2-78.6 74.3V618.7c0 48.1 39.3 74.3 78.6 74.3s74.2-26.2 74.2-74.3v-104.9c0-48-35-74.3-74.2-74.3z m30.5 179.2c0 21.9-13.1 35-30.6 35s-30.6-13.1-30.6-35v-104.9c0-21.9 13.1-35 30.6-35s30.6 13.1 30.6 35V618.7zM431.9 439.5c-43.7 0-78.6 30.6-78.6 78.7 0 21.9 8.7 43.7 21.8 65.6L427.5 693h52.4l-52.4-104.9c4.4 4.4 13.1 4.4 17.5 4.4 34.9 0 65.5-26.2 65.5-74.3 0-48.1-35-78.7-78.6-78.7z m0 113.7c-21.8 0-34.9-13.1-30.6-35 0-21.9 13.1-35 30.6-35s30.6 13.1 30.6 35c-0.1 21.9-13.2 35-30.6 35z m-100.4-39.4c0-48.1-34.9-74.3-78.6-74.3-39.3 0-78.6 21.9-78.6 74.3H218c0-21.9 17.5-30.6 34.9-30.6 21.8 0 34.9 13.1 34.9 35s-13.1 35-34.9 35h-8.7v39.3h13.1c21.8 0 30.6 13.1 30.6 30.6 0 21.9-13.1 30.6-30.6 30.6-8.2 0.2-16.1-3-21.8-8.7-5.8-5.8-8.9-13.7-8.7-21.8h-43.7c0 43.7 30.6 69.9 74.2 69.9 43.7 0 74.2-26.2 74.2-69.9 0-26.2-13.1-43.7-30.6-52.4 17.5-8.9 30.6-26.4 30.6-57z m0 0"  horiz-adv-x="1024" />

    
    <glyph glyph-name="mxxz" unicode="&#58992;" d="M714.4 595.7L419.6 791.9 125 595.7l-28.7-19.2L391 380.20000000000005l28.7-19.2 28.7 19.2 294.8 196.3-28.8 19.2zM419.6 399.3L153.7 576.5l265.9 177.1 266-177.1-266-177.2z m0 0M685.6 576.5l-266-177.2-265.9 177.2 265.9 177.1 266-177.1z m0 0M830.3-62.299999999999955h-63.8V65.29999999999995H638.9v63.9h127.7V256.79999999999995h63.8v-127.6h127.7v-63.9H830.3v-127.6z m0 0M742.8 616.3L419.4 831.8 95.9 616.3 64 595.1v-357.3l323.5-215.4 31.9-21.3 31.9 21.3L575 104.79999999999995v76.6L451.3 99V345.4l259.6 173v-197.8h63.8V595.1l-31.9 21.2zM387.5 98.79999999999995l-259.7 173V518.4l259.6-172.9 0.1-246.7z m31.9 302L153.4 578l265.9 177.1 266-177.1-265.9-177.2zM702.7 193v73.3l-110-73.3h110z m0 0M830.3-62.299999999999955h-63.8V65.29999999999995H638.9v63.9h127.7V256.79999999999995h63.8v-127.6h127.7v-63.9H830.3v-127.6z m0 0"  horiz-adv-x="1024" />

    
    <glyph glyph-name="ksmx" unicode="&#58993;" d="M526 414.4c-11.3 105-86.5 181.6-121.1 202.3-21.7 12.9-49.8 5.9-62.7-15.8-4.4-7.4-6.5-15.4-6.5-23.4 0-15.6 8-30.8 22.3-39.3 14.8-8.8 69.4-62.4 77.1-133.5 6.5-60.3-22.1-120.6-84.9-179.3-18.4-17.3-19.4-46.2-2.2-64.7 17.3-18.4 46.2-19.4 64.7-2.2 105.7 98.9 120 193.7 113.3 255.9z m0 0M345.8 383.4c0 48.5-39.3 87.8-87.8 87.8s-87.8-39.3-87.8-87.8 39.3-87.8 87.8-87.8 87.8 39.3 87.8 87.8z m306.4-433.2C795.2 97.10000000000002 862.1 254.5 851 418c-6.5 95.4-40.9 193.1-99.5 282.6C706 769.9 660.1 813.5 647.6 823.3c-19.9 15.6-48.7 12.1-64.3-7.8-6.6-8.4-9.7-18.3-9.7-28.2 0-13.6 6-27 17.5-36 7.7-6.2 46.9-44 85.4-103.3 34.7-53.4 77.2-138.3 83.3-239.2 8.1-135.4-50.1-268.2-173.3-394.8-17.6-18.1-17.2-47.1 0.9-64.7 18.3-17.6 47.2-17.2 64.8 0.9z m0 0M690.6 406.2c-8 172.6-131.1 288.2-155.7 309.7-19 16.6-47.9 14.6-64.5-4.4-7.6-8.7-11.3-19.4-11.3-30 0-12.8 5.3-25.5 15.7-34.5 12.1-10.5 118-106.7 124.4-244.9 4.3-94.2-38.5-189.2-127.5-282.4-17.4-18.3-16.8-47.2 1.5-64.7 18.3-17.4 47.2-16.8 64.7 1.5C644.8 168.29999999999995 696.1 286 690.6 406.2z m0 0"  horiz-adv-x="1024" />

    
    <glyph glyph-name="ltxfx" unicode="&#58994;" d="M282.5 471.5h351.9c16.5 0 29.8 13.4 29.8 29.8 0 16.5-13.4 29.8-29.8 29.8H282.5c-53 0-94 34.6-94 74.6s41.1 74.6 94 74.6H424c11.9-40.1 48.6-69.6 92.5-69.6 44 0 80.7 29.5 92.5 69.6h179.8c16.5 0 29.8 13.3 29.8 29.8s-13.4 29.8-29.8 29.8H607.5c-13.4 37.6-48.9 64.6-91 64.6s-77.6-27-91-64.6h-143c-83.8 0-153.7-58.8-153.7-134.2 0-75.4 69.9-134.2 153.7-134.2z m0 0M904.1 482.2c-0.4 53.4-44 96.4-97.5 96.1-53.4-0.3-96.5-43.8-96.4-97.2 0.2-53.4 43.5-96.6 97-96.6 30.9 0 58.2 14.8 75.9 37.3 10.7-12.2 17-26.8 17-42.3 0-39.9-41.1-74.6-94-74.6H308.5c-17.4 29.2-48.8 47.2-82.8 47.2-50.4-0.1-92.3-38.9-96.1-89.2-39.2-24.1-65.4-63.7-65.4-109.6 0-75.4 69.8-134.2 153.7-134.2h244c16.1-33.3 49.8-54.6 86.9-54.7 53.5 0 96.9 43.4 96.9 96.9 0 53.5-43.4 96.9-96.9 96.9-46.8 0-86.8-33.5-95.2-79.5H217.9c-52.9 0-94 34.6-94 74.6 0 17.7 8.4 34.1 22 47.2 18-26.4 47.9-42.2 79.9-42.2 49.5 0.1 91 37.7 95.9 87h484.4c83.9 0 153.7 58.8 153.7 134.2 0 42-22.1 78.3-55.7 102.7z m0 0"  horiz-adv-x="1024" />

    
    <glyph glyph-name="sjzh" unicode="&#58995;" d="M955.6 458.2V774c0 26.7-22.2 48.9-48.9 48.9H577.5c-26.7 0-48.9-22.2-48.9-48.9v-315.8c0-26.7 22.2-48.9 48.9-48.9h329.2c26.7-0.1 48.9 22.2 48.9 48.9z m-840.7-97.9c-26.7 0-48.9-22.2-48.9-48.9v-315.8c0-26.7 22.2-48.9 48.9-48.9h329.2c26.7 0 48.9 22.2 48.9 48.9V311.4c0 26.7-22.2 48.9-48.9 48.9H114.9z m182.4 213.5h-48.9c0 84.5 71.2 155.7 155.7 155.7h17.8c13.3 0 22.2 8.9 22.2 22.2V809.6c0 13.3-8.9 22.2-22.2 22.2h-17.8c-142.3 0-258-115.6-258-258H88.2c-8.9 0-13.3-8.9-13.3-17.8 0-4.4 0-4.4 4.4-8.9l97.9-111.2c8.9-8.9 22.2-8.9 31.1 0l97.9 111.2c4.4 4.4 4.4 13.3 0 17.8-4.5 4.5-4.5 8.9-8.9 8.9z m427-373.6h48.9c0-84.5-71.2-155.7-155.7-155.7h-17.8c-13.3 0-22.2-8.9-22.2-22.2V-40c0-13.3 8.9-22.2 22.2-22.2h17.8c142.3 0 258 115.6 258 258h57.8c8.9 0 13.3 4.4 13.3 13.3 0 4.4 0 4.4-4.4 8.9l-97.9 111.2c-8.9 8.9-22.2 8.9-31.1 0L715.4 218c-4.4-4.4-4.4-13.3 0-17.8 0 4.4 4.5 0 8.9 0z m0 0"  horiz-adv-x="1024" />

    
    <glyph glyph-name="hcfx" unicode="&#58996;" d="M201.1 344.29999999999995h33.7c22.2 0 40.2 18 40.2 40.2 0 22.2-18 40.2-40.2 40.2h-57.2l-16.7 2c-0.1-0.7-0.1-1.3-0.2-2h-56.4c-22.2 0-40.2-18-40.2-40.2 0-22.2 18-40.2 40.2-40.2H183l-22.1-2.7c1.7-14.1 4.3-28.1 7.7-41.9l39 9.6c-2.8 11.5-5 23.2-6.5 35z m33.3-105.5c-5.9 11.2-11.1 22.6-15.5 34.4L181.3 259c5.1-13.3 10.9-26.3 17.6-38.9l35.5 18.7z m113.1-167.1c12.6-6.6 25.6-12.5 38.9-17.5l14.2 37.6c-11.8 4.5-23.3 9.6-34.5 15.5l-18.6-35.6zM218.7 495.2l-37.6 14.2c-5-13.3-9.3-26.9-12.6-40.8l39-9.5c3 12.2 6.7 24.3 11.2 36.1z m147 166.3L346.9 697c-12.6-6.6-24.7-14-36.4-22.1l22.9-33c10.4 7.1 21.1 13.7 32.3 19.6zM234.2 529.6c5.9 11.2 12.4 22 19.5 32.3l-33.1 22.8c-8.1-11.7-15.4-23.9-22.1-36.5l35.7-18.6z m201.9 158.7l-9.6 39c-13.8-3.4-27.4-7.7-40.7-12.7l14.3-37.6c11.8 4.5 23.8 8.3 36 11.3z m115.6-633.6v53.1c0 22.2-18 40.2-40.2 40.2-22.2 0-40.2-18-40.2-40.2v-33.7c-11.6 1.5-23.2 3.6-34.6 6.4l-9.6-39c13.8-3.4 27.8-5.9 42-7.6l2.2 18.1v-74.8c0-22.2 18-40.2 40.2-40.2 22.2 0 40.2 18 40.2 40.2v56.4c0.8 0.1 1.7 0.2 2.5 0.3l-2.5 20.8z m236.7 475.7c5.9-11.1 11.1-22.6 15.6-34.4l37.5 14.3c-5.1 13.3-11 26.3-17.6 38.8l-35.5-18.7z m0.2-291.3c-5.9-11.2-12.4-22-19.6-32.3l33.1-22.9c8.1 11.7 15.5 23.9 22.1 36.5l-35.6 18.7z m15.6 34.4l37.6-14.3c5 13.3 9.3 26.9 12.7 40.7l-39 9.6c-3.1-12.1-6.9-24.2-11.3-36zM657 107.39999999999998l18.7-35.6c12.6 6.6 24.8 14 36.4 22.1L689.3 127c-10.4-7.2-21.2-13.7-32.3-19.6zM553.5 735.1l-1.8-15.4v72c0 22.2-18 40.2-40.2 40.2-22.2 0-40.2-18-40.2-40.2v-56.4c-0.9-0.1-1.9-0.2-2.8-0.3l2.8-23.4v-50.4c0-22.2 18-40.2 40.2-40.2 22.2 0 40.2 18 40.2 40.2v33.7c11.5-1.5 23-3.6 34.3-6.3l9.5 39c-13.9 3.3-27.9 5.9-42 7.5z m33-654.5l9.6-39c13.8 3.4 27.4 7.6 40.7 12.7l-14.3 37.6c-11.7-4.5-23.8-8.3-36-11.3z m49.7 634.3L622 677.3c11.8-4.5 23.3-9.6 34.5-15.5l18.7 35.6c-12.7 6.7-25.7 12.5-39 17.5zM287.4 551.7c7.8-7.8 18.1-11.8 28.4-11.8 10.3 0 20.6 3.9 28.4 11.8 15.7 15.7 15.7 41.1 0 56.8l-92.4 92.4c-15.7 15.7-41.1 15.7-56.8 0-15.7-15.7-15.7-41.1 0-56.8l92.4-92.4z m56.9-334.4c-15.7 15.7-41.1 15.7-56.8 0l-23.8-23.8c-3.3 4.3-6.5 8.6-9.6 13.1l-33-22.9c4.5-6.4 9.1-12.7 14-18.8L195.2 125c-15.7-15.7-15.7-41.1 0-56.8 7.8-7.8 18.1-11.8 28.4-11.8 10.3 0 20.6 3.9 28.4 11.8l39.9 39.9c6.2-5 12.6-9.7 19.2-14.3l22.8 33.1c-4.6 3.1-9 6.4-13.4 9.8l23.8 23.8c15.7 15.7 15.7 41.1 0 56.8z m391.2 0c-15.7 15.7-41.1 15.7-56.8 0-15.7-15.7-15.7-41.1 0-56.8l92.4-92.4c7.8-7.8 18.1-11.8 28.4-11.8s20.6 3.9 28.4 11.8c15.7 15.7 15.7 41.1 0 56.8l-92.4 92.4z m183.2 207.4h-81.5l24.7 3c-1.7 14.1-4.3 28.1-7.7 41.9l-39-9.7c2.9-11.6 5.1-23.4 6.6-35.3h-33.7c-22.2 0-40.2-18-40.2-40.2 0-22.2 18-40.2 40.2-40.2h54.5L862 342c0.1 0.8 0.2 1.6 0.3 2.3h56.4c22.2 0 40.2 18 40.2 40.2 0 22.2-18 40.2-40.2 40.2z m-240 127c7.8-7.8 18.1-11.8 28.4-11.8 10.3 0 20.6 3.9 28.4 11.8l23.8 23.8c3.2-4.2 6.4-8.5 9.4-12.8l33 22.9c-4.4 6.3-9 12.5-13.8 18.5l39.9 39.9c15.7 15.7 15.7 41.1 0 56.8-15.7 15.7-41.1 15.7-56.8 0L731.1 661c-6.3 5-12.8 9.9-19.5 14.5l-22.8-33.1c4.6-3.2 9.2-6.5 13.7-10l-23.8-23.8c-15.7-15.8-15.7-41.2 0-56.9z m0 0"  horiz-adv-x="1024" />

    
    <glyph glyph-name="dzfx" unicode="&#58997;" d="M809.6 681.4V830.1H66v-743.5h148.7v-148.7h743.5V681.4H809.6zM165.1 185.70000000000005V731h545.2v-49.6H214.7v-495.7h-49.6z m545.4 396.6v-396.5H313.8V582.3h396.7zM859.2 37H313.8v49.6h495.7V582.3h49.6V37z m0 0"  horiz-adv-x="1024" />

    
    <glyph glyph-name="jldb" unicode="&#58983;" d="M107 704.3h809.4v-639H107v639z m402.6-79.8v-479.2h325.9V624.5H509.6z m0 0M447.8 832.1H533v-894.6h-85.2z"  horiz-adv-x="1024" />

    
    <glyph glyph-name="kjfx" unicode="&#58998;" d="M894.7 629l-0.9 1.7-1.2-0.6L512.1 831l-414-215.5v-463.2l414-214.5 414 216.5V612.5L894.7 629z m-70.4-35L510.8 428.7 196.4 594.6l315.5 164.3L824.3 594zM162 540.5l320.2-168.9v-346.5L162 191.10000000000002V540.5z m588.4-406.1l-95.9-50.2L546 27.5V375.1L862.3 542v-349l-111.9-58.6z m0 0"  horiz-adv-x="1024" />

    
    <glyph glyph-name="keshiyu" unicode="&#58999;" d="M670 493c21.9-31.6 33.6-69.1 33.6-108.4 0-51.2-20-99.2-56.1-135.3-36.1-36.1-84.3-56.1-135.5-56.1s-99.3 19.9-135.5 56.1c-36.1 36.1-56.1 84.2-56.1 135.3s20 99.2 56.1 135.3c32.5 32.4 74.5 51.8 119.7 55.5l-5.1 63.6c-131.4-10.6-234.6-120.5-234.6-254.4 0-140.9 114.4-255.2 255.5-255.2s255.5 114.3 255.5 255.2c0 53.7-16.6 103.3-44.8 144.4L670 493z m0 0M511.5 830v-413.8c-17.7 0-31.9-14.3-31.9-31.9 0-17.7 14.3-31.9 31.9-31.9 17.7 0 32 14.3 32 31.9 0 7.7-2.7 14.7-7.2 20.1l321.9 260.5 0.4 0.4c0.1 0 0.1 0.1 0.2 0.1C777 766.4 652 831.1 511.8 831.1h-0.3V830z m0 0M880.2 636.8l-0.4-0.4c-0.1 0-0.1-0.1-0.2-0.1l-52-35.7c14.3-20.9 26.6-43.2 36.4-66.7 20-47.1 30.1-97 30.1-148.6 0-51.6-10.1-101.6-30.1-148.6-19.3-45.5-46.8-86.4-82-121.4-35.1-35.1-76.1-62.6-121.5-81.9-47.1-19.9-97.2-30-148.8-30-51.6 0-101.7 10.1-148.8 30-45.5 19.3-86.5 46.8-121.5 81.9-35.1 35.1-62.7 76-82 121.4-20 47.1-30.1 97-30.1 148.6 0 51.6 10.1 101.6 30.1 148.6 19.3 45.5 46.8 86.4 82 121.4 35.1 35.1 76.1 62.6 121.5 81.9 37.7 16 77.4 25.6 118.2 28.8l-5 62.5-0.1 1.1C246.3 811.5 65.4 619.5 65.4 385.2c0-246.1 199.8-445.8 446.3-445.8S958 139 958 385.2c0 93.4-28.7 180-77.8 251.6z m0 0"  horiz-adv-x="1024" />

    
    <glyph glyph-name="moxingkaiwa" unicode="&#59002;" d="M379.8-62.1c-80.7 0-161.4 30.8-223 92.3C97 90 64.5 169 64.5 253.2s32.5 163.2 92.3 223l106.9 106.9c25 25 58.7 38.9 94.1 38.9 35.4 0 69.1-13.9 94.1-38.9l25.6-25.6 84.8 84.8-28.5 28.5c-18 18-27.9 41.8-27.9 66.8 0 25.6 9.9 48.8 27.9 66.8 36.6 37.2 97 37.2 133.6 0l263.1-263.1c36.6-37.2 36.6-97 0-133.6-18-18-41.8-27.9-66.8-27.9-25.6 0-48.8 9.9-66.8 27.9l-28.5 28.5-84.8-84.8 25.6-25.6c51.7-51.7 51.7-136.5 0-188.7L602.3 30.2c-61-61.6-141.7-92.3-222.5-92.3z m-21.4 608.6c-15.7 0-30.2-5.8-40.7-16.8L210.3 422.8C165 377.5 140 317.1 140 253.2s25-124.3 70.3-169.6c93.5-93.5 245.7-93.5 339.1 0l106.9 106.9c22.6 22.7 22.6 59.2 0 81.9L604 324.6c-14.5 14.5-14.5 38.9 0 53.4l138.2 138.2c14.5 14.5 38.9 14.5 53.4 0l55.2-55.2c4.6-4.6 10.5-5.8 13.4-5.8 2.9 0 8.7 0.6 13.4 5.8 7.5 7.5 7.5 19.7 0 26.7L614.5 750.9c-4.6 4.6-10.5 5.8-13.4 5.8-2.9 0-8.7-0.6-13.4-5.8-4.6-4.6-5.8-10.5-5.8-13.4 0-2.9 0.6-8.7 5.8-13.4l55.2-55.2c14.5-14.5 14.5-38.9 0-53.4L504.7 477.9c-14.5-14.5-38.9-14.5-53.4 0L399 530.2c-11 10.5-25.6 16.3-40.6 16.3z m0 0M292.1 128.3c-9.9 0-19.2 3.5-26.7 11-14.5 14.5-14.5 38.9 0 53.4l166.1 166.1c14.5 14.5 38.9 14.5 53.4 0s14.5-38.9 0-53.4l-166-166c-7.6-7.6-17.5-11.1-26.8-11.1z m0 0"  horiz-adv-x="1024" />

    


  </font>
</defs>
</svg>
